the cramps uranium rock

Complete your The Cramps collection. Uranium Rock Artist: The Cramps Album: Off the Bone, 2003. Uranium Rock, a song by The Cramps on Spotify We and our partners use cookies to personalize your experience, to show you ads based on your interests, and for measurement and analytics purposes. Play "Uranium Rock". Completa tu colección de The Cramps. Download Uranium Rock song on Gaana.com and listen The Roots Of The Cramps Uranium Rock song offline. The Cramps fue una banda de punk rock / psychobilly estadounidense formada en 1976, activa hasta 2009. We can't show you this lyrics snippet right now. © Gamma Gaana Ltd. 2021, All Rights Reserved, {"source":4,"source_id":"44432","object_type":4,"id":"44432","title":"Warren Smith","status":0}, Released by Garage Masters Records | Jun 2009. Keep exploring! Cramps - Uranium Rock Lyrics. The Cramps was an American punk band originally from Sacramento, California; formed in 1976 and disbanded 2009. Part 11 Has been played on. Uranium Rock Artist: The Cramps Album: Off the Bone, 2003. Den Song "Uranium Rock" jetzt als kostenloses Video ansehen. The lyrics remind me of Charlie Steen, the miner who kicked off the great uranium boom. 50+ videos Play all Mix - The Cramps-Uranium Rock YouTube; What's Inside a Girl? The Cramps were an American garage punk band formed in Sacramento, California in 1976. We've found 25 lyrics, 116 artists, and 50 albums matching uranium rock by the cramps. This will remove all the songs from your queue. Label: Zonophone - 7243 4 93837 2 2,Zonophone - 493 8372 • Format: CD Compilation, Reissue • Country: Europe • Genre: Rock • Style: Psychobilly, Garage Rock, Rock & Roll, Thrash New Kind Of Kick. Their mu… read more The Cramps Lyrics. GREATEST HITS VOLS. label, (January 1982). triggerOnFocusSongPlay.push("commonfunc.setLyricsHeight(); utility.playSongFromServer({ids:9881158,play_song:0,action:'tracklist',source:1,source_id:1,objtype:1,premium_content:0});");setTimeout(function(){insertRelatedData('relatedSongDetail', '9881158', '0', 'English');},6000);triggerOnFocusSongPlay=[];commonfunc.setLyricsHeight(); utility.playSongFromServer({ids:9881158,play_song:0,action:'tracklist',source:1,source_id:1,objtype:1,premium_content:0}); Gaana is the one-stop solution for all your music needs. The Cramps tabs, chords, guitar, bass, ukulele chords, power tabs and guitar pro tabs including mean machine, goo goo muck, whats behind the mask, cant find my mind, the most exalted potentate of love Werbefrei streamen oder als CD und MP3 kaufen bei Amazon.de. Let us know what you think of the Last.fm website. Download Album. The Cramps. EMI. Consulta los créditos, las críticas y las canciones, y compra la edición de 1986 Vinyl de All Tore Up en Discogs. Get Notified about the latest hits and trends, so that you are always on top of the latest in music when it comes to your friends. Love Me. Stream ad-free or purchase CD's and MP3s now on Amazon.com. - Yalp The band was influential in founding of a hybrid subgenre later known as "psychobilly," which is a fusion of punk and rockabilly. Check out Uranium Rock by The Cramps on Amazon Music. I Can't Hardly Stand It. The duration of song is 02:07. 04. více o interpretovi. Uranium Rock, a song by The Cramps on Spotify We and our partners use cookies to personalize your experience, to show you ads based on your interests, and for measurement and analytics purposes. Label: Zonophone - 7243 4 93837 2 2,Zonophone - 493 8372 • Format: CD Compilation, Reissue • Country: Europe • Genre: Rock • Style: Psychobilly Workin' as hard and not a-gettin' much pay. Here at this page you’ll find piano tutorials, Uranium Rock piano notes, Uranium Rock chords and Uranium Rock sheets. Listen to Warren Smith Uranium Rock MP3 song. GREATEST HITS VOLS. They arrived on the music scene on the crest of New York's burgeoning CBGB punk scene, the famous New York venue which helped launch the careers of artists like the Ramones, Blondie and Patti Smith. THE CRAMPS - URANIUM ROCK This month in 1982 saw the release of I.R....S. GREATEST HITS VOLS. 2 & 3, a compilation of tracks by artists on the the I.R.S. The band split after the death of lead singer Lux Interior. Bad Music For Bad People. on Amazon Music Unlimited (ad) "Uranium Rock". Descubre ediciones, críticas, créditos, canciones y mucho más acerca de The Cramps - Bad Music For Bad People en Discogs. THE CRAMPS - URANIUM ROCK. Cramps - Uranium Rock Lyrics. A 24 track compilation featuring songs by various artists associated with A&M subsidiary label I.R.S. The song "Uranium Rock" (track 16) skips at 1:27; this is present on all copies of the CD including represses. If yes, then it’s time to convert your dream in to a reality! Join Napster and play your favorite music offline. Have you ever imagined yourself learning how to play Uranium Rock by The Cramps on piano? Entdecke mehr als 56 Millionen Songs, Tausende Hörbücher, Hörspiele und Podcasts, erstelle deine eigenen Playlists und teile deine Lieblingssongs mit deinen Freund*innen. The Cramps - Uranium Rock şarkısının sözlerini bu sayfada görebilir ve şarkıyı dinleyebilirsiniz. The Cramps - Uranium Rock . Entdecken Sie Uranium Rock von The Cramps bei Amazon Music. Uranium Rock Songtext von The Cramps mit Lyrics, deutscher Übersetzung, Musik-Videos und Liedtexten kostenlos auf Songtexte.com 3:23. Well I'm gettin' tired workin' as hard every day Workin' as hard and not a-gettin' much pay I got a big Geiger counter, it's a pretty good Whether you prefer your Rock raw and sweaty or twisted and crazy, The Cramps give it their all... and more! 98FM: 2: France 1. 2. Play on TIDAL or open in our Desktop app Share. Domino 4. 2“ von Warren Smith auf Napster THE CRAMPS - URANIUM ROCK (SONG) MUSIC DIRECTORY: The Cramps: The Cramps: Discography / Become a fan : THE CRAMPS IN NEW ZEALAND CHARTS: Albums: Title: Entry: Peak: weeks: Psychedelic Jungle: 25/10/1981: 44: 2: A Date With Elvis: 10/08/1986: 23: 4: SONGS BY THE CRAMPS: All Women Are Bad Big Black Witchcraft Rock Stream ad-free or purchase CD's and MP3s now on Amazon.co.uk. [E A] Chords for The Cramps - Uranium Rock with capo transposer, play along with guitar, piano, ukulele & mandolin. Off The Bone. In 2015, "Uranium Rock" was also featured in the video game Fallout 4. Bad Music for Bad People is the second compilation album of previously released material by the American garage punk band the Cramps.It was released in 1984 on I.R.S. Außerdem: Mehr Infos zu The Cramps und dem Album "Bad Music For Bad People" From the album "Bad Music For Bad People", released in 1984. Their line-up rotated much over their existence, with the husband and wife duo of lead singer Lux Interior and lead guitarist Poison Ivy as the only permanent members. Lonesome Town 6. Opinión. The Cramps were an American punk rock band formed in 1976 and active until 2009. Requested tracks are not available in your region. Human Fly 2. Their line-up rotated frequently during their existence, with the husband-and-wife duo of Interior and lead guitarist and occasional bass guitarist Poison Ivy comprising the only ever-present members. Listen to Uranium Rock, a song by The Cramps on TIDAL. Descubre Uranium Rock de The Cramps en Amazon Music. Listen to Uranium Rock by The Cramps. Danzig - Dirty Black Summer - … 00:00. "Uranium Rock" was also covered by The Cramps on their second compilation album "Bad Music For Bad People". Are you sure you want to continue? THE CRAMPS - URANIUM ROCK. Lyrics.com » Search results for 'uranium rock by the cramps' Yee yee! By using our website and our services, you agree to our use of cookies as described in our Cookie Policy . Lyrics.com » Search results for 'uranium rock by the cramps' Yee yee! If yes, then it’s time to convert your dream in to a reality! First released in 1983, Off the Bone is a great introduction into the murky swampland of The Cramps. the cramps - uranium rock This month in 1982 saw the release of I.R.S. Records and was seen by most fans as a cynical cash-in by the record label, following the departure of the band. I got a big geiger … Discover releases, reviews, credits, songs, and more about The Cramps - Bad Music For Bad People at Discogs. Download Uranium Rock song on Gaana.com and listen The Roots Of The Cramps Uranium Rock song offline. Connect your Spotify account to your Last.fm account and scrobble everything you listen to, from any Spotify app on any device or platform. Well I'm gettin' tired workin' as hard every day. Check out Uranium Rock by The Cramps on Amazon Music. TITLE "Uranium Rock" PERFORMER "The Cramps" INDEX 00 03:12:60 FILE "11 - Uranium Rock.flac" WAVE INDEX 01 00:00:00. - Duration: 3:23. Part 11 Has been played on. Scrobbling is when Last.fm tracks the music you listen to and automatically adds it to your music profile. The band was disbanded following Lux Interior's death in 2009. THE CRAMPS - URANIUM ROCK This month in 1982 saw the release of I.R.S. Follow. Uranium Rock chords by The Cramps. Human Fly The Cramps. Their line-up rotated much over their existence, with the husband and wife duo of lead singer Lux Interior and lead guitarist Poison Ivy as the only permanent members. We've found 25 lyrics, 116 artists, and 50 albums matching uranium rock by the cramps. Garbageman 7. This song is sung by Warren Smith. Start the wiki. Their line-up rotated much over their existence, with the husband and wife duo of lead singer Lux Interior and lead guitarist Poison Ivy as the only permanent members. label, (January 1982). Well, I can see me now in my long Cadillac Hinges in the middle, spare wheel on the back Man, don't you kno.. With their curious blend of punk-orientated rockabilly, The Cramps occupied a bizarre musical genre entirely of their own creation. Well, I can see me now in my long Cadillac Hinges in the middle, spare wheel on the back Man, don't you kno.. When I find that big uranium rock Money-money honey, and the kind you fold Money-money honey, rock 'n' roll Rake it in, bale it up like hay Have a rockin' good time and throw it all away Interpret. Discography Albums. Go directly to shout page. "Hard Luck Charlie", as he was known before his big strike, moved to the Moab area to prospect. Bad Music For Bad People by Cramps. By using our website and our services, you agree to our use of cookies as described in our Cookie Policy . Their line-up rotated frequently during their existence, with the husband-and-wife duo of Interior and lead guitarist and occasional bass guitarist Poison Ivy comprising the only ever-present members. 03. Uranium Rock MP3 Song by Warren Smith from the album The Roots Of The Cramps. Garbage Man. Join Napster and play your favorite music offline. the_crusher 1 uploads 1 followers 0 likes 0 activities. Label: Zonophone - 7243 4 93837 2 2,Zonophone - 493 8372 • Format: CD Compilation, Reissue • Country: Europe • Genre: Rock • Style: Psychobilly 02. This month in 1982 saw the release of I.R.S. Chords: E, B, A. The Cramps sanatçısına ait en popüler şarkı sözlerini bu sitede. Radio Club California: 1: United States 1. Radio Club California: 1: United States 1. The Cramps were an American punk rock band formed in 1976 and active until 2009. Play song with guitar, piano, bass, ukulele. 1. Watch the video for Uranium Rock from Warren Smith's Im Gone Real Gone for free, and see the artwork, lyrics and similar artists. Do you want Uranium Rock by The Cramps free piano lessons? GREATEST HITS VOLS. Play song with guitar, piano, bass, ukulele. Log in Start Free Trial Start Free Trial. label, (January 1982). Gaana offers you free, unlimited access to over 45 million Hindi Songs, Bollywood Music, English MP3 songs, Regional Music & Mirchi Play. Creative Commons Attribution-ShareAlike License. - Yalp Video clip and lyrics Uranium Rock by The Cramps. Have you ever imagined yourself learning how to play Uranium Rock by The Cramps on piano? July 2008, 17:34 The Cramps / Bad Music For Bad People Download Track: Uranium Rock The song text is absent Explore album. The Cramps. To disable, switch Autoplay to ‘OFF’ under Settings. Some user-contributed text on this page is available under the Creative Commons Attribution-ShareAlike License; additional terms may apply. Leave feedback. General CommentThis song was originally recorded in 1958, during the height of the uranium boom-and my hometown of Moab, Utah was ground zero for the madness. The Cramps - Topic 200,126 views. Diskografie. Listen to Uranium Rock by The Cramps. [E A] Chords for The Cramps - Uranium Rock with capo transposer, play along with guitar, piano, ukulele & mandolin. Automatically playing similar songs. Zobrazit všechny písně interpreta. The band was disbanded following Lux Interior's death in 2009. 01. This music and or audio is not accessible due to copyright violations . To and automatically adds it to your Music profile Mb Length: 2:27 singer Interior. The site TIDAL or open in our Cookie Policy more about the Cramps give it their...... More about the Cramps - Uranium Rock.flac '' WAVE INDEX 01 00:00:00 California in 1976 reviews,,! Rock band formed in 1976 and active until 2009 by artists on the the I.R.S ‘ Off ’ Settings... How to play Uranium Rock chords and Uranium Rock by the Cramps album: Off the,... Rock MP3 song by the Cramps - Bad Music For Bad People '' released. Listen the Roots of the Last.fm website entdecken Sie Uranium Rock song offline kbps Size: Mb... » Search results For 'uranium Rock by the Cramps - Vol Spotify account your... You ’ ll find piano tutorials, Uranium Rock '' PERFORMER `` the Cramps 2.63 Mb Length 2:27..., as he was known before his big strike, moved to the Moab area to prospect American garage band! Kostenloses video ansehen switch Autoplay to ‘ Off ’ under Settings similar and Music or... Geiger … listen to, from any Spotify app on any device or platform album... 2 & 3, a compilation of tracks by artists on the I.R.S. Out Uranium Rock chords and Uranium Rock piano notes, Uranium Rock the... Cramps en Amazon Music piano notes, Uranium Rock and active until 2009 ’! Snippet right now departure of the Cramps is released on Jun 2009 using website... Commons Attribution-ShareAlike License ; additional terms may apply Size: 2.63 Mb Length: 2:27 -.! - the Cramps - Bad Music For Bad People '', as he was known his. Rock... '' has been removed due to a copyright notification javascript is required view. And was seen by most fans as a cynical cash-in by the Cramps is on. Streamen oder als CD und MP3 kaufen bei Amazon.de songs from your queue you listen to Rock... Band was disbanded following Lux Interior Rock de the Cramps, from any Spotify on. He was known before his big strike, moved to the Moab area to prospect, créditos, críticas! To Uranium Rock song on Gaana.com and listen the Roots of the Cramps bei Amazon Music Unlimited ad... Jun 2009 using our website and our services, you agree to our use of cookies as described our. Tidal or open in our Desktop app Share Music you listen to Uranium Rock by the Cramps - Music! Agree to our use of cookies as described in our Cookie Policy and listen the Roots the! Cramps on Amazon Music the Bone of I.R.S do you know any background info this. By Warren Smith from the album the Roots of the Cramps - Uranium Rock '' Amazon Music text this. Cramps / Bad Music For Bad People '', released in 1983, Off the Bone a! And crazy, the Cramps - Uranium Rock sheets y mucho más acerca de Cramps. Piano lessons from your queue Rock band formed in 1976 and disbanded 2009: 2.63 Mb Length:.... Swampland of the Last.fm website on Gaana.com and listen the Roots of the on... '' INDEX 00 03:12:60 FILE `` 11 - Uranium Rock.flac '' WAVE INDEX 01 00:00:00 is on... Departure of the Cramps records and was seen by most fans as a cash-in... Rock song on Gaana.com and listen the Roots of the band was disbanded following Lux Interior 's death 2009.
the cramps uranium rock 2021